#TITLE:Eruption;
#SUBTITLE:- zebdal -;
#ARTIST:Van Halen;
#TITLETRANSLIT:;
#SUBTITLETRANSLIT:;
#ARTISTTRANSLIT:;
#CREDIT:;
#BANNER:eruption-bann.jpg;
#BACKGROUND:eruption-bg.jpg;
#LYRICSPATH:;
#CDTITLE:cdtitle.png;
#MUSIC:002 Van Halen - Eruption.mp3;
#OFFSET:-1.300;
#SAMPLESTART:57.601;
#SAMPLELENGTH:12.000;
#SELECTABLE:YES;
#BPMS:0.000=240.001;
#STOPS:;
#BGCHANGES:;
// cache tags:
#FIRSTBEAT:4.000;
#LASTBEAT:390.000;
#SONGFILENAME:Songs/New Folder/Eruption/eruption.sm;
#HASMUSIC:1;
#HASBANNER:1;
#MUSICLENGTH:102.243;
// end cache tags

//---------------dance-single - ----------------
#NOTES:
     dance-single:
     :
     Challenge:
     15:
     1.000,1.000,0.020,0.147,1.000,816.000,2.000,15.000,0.000,0.000:
0000
0000
0000
0000
,
0200
0000
0000
0000
,
0000
0000
0302
0000
,
0003
0010
0000
0000
1000
0000
0000
0100
0000
0001
0000
0000
1000
0000
0010
0000
,
1000
0000
0000
0000
0000
0000
0000
0000
0000
0000
0000
0000
0010
0000
0000
0000
1000
0000
0000
0000
0001
0000
0000
0000
0010
0000
0000
1000
0000
0000
0001
0000
0000
0010
0000
0000
0100
0000
0000
0010
0000
0000
0001
0000
0000
1000
0000
0000
,
0010
0001
0100
1000
0100
0001
0010
0001
0100
1000
0001
1000
0100
0001
0100
0001
,
0010
1000
0100
0001
0100
0001
0010
0001
0010
1000
0010
1000
0100
0001
0010
0000
,
0000
0000
0000
1000
0000
0000
0000
0000
0000
0000
0000
0000
0010
0000
0000
0000
0001
0000
0000
0000
0100
0000
0000
0000
0001
0000
0000
1000
0000
0000
0001
0000
0000
0010
0000
0000
0001
0000
0000
1000
0000
0000
0001
0000
0000
0010
0000
0000
,
0001
1000
0010
0001
0100
0001
0010
1000
0100
0001
0010
1000
0100
0001
0010
0000
,
1000
0000
0000
0001
0000
0000
0010
0000
0000
0100
0000
0000
0000
1000
0000
0000
,
0000
0010
0000
0000
0000
0001
0000
0000
0000
0200
0000
0000
0000
0000
0000
0000
,
2300
0000
0000
0000
,
0000
0000
3020
0000
,
0000
0000
0000
0000
,
0000
0000
0000
0000
,
0000
0000
0000
0000
,
0000
0000
0000
1030
,
1100
0000
0000
0000
0000
0000
0000
0000
1000
0100
0010
0001
0000
0000
0000
0000
,
0000
1000
1100
0000
,
0000
0000
0000
0000
0000
0200
0000
0000
0000
0300
0000
0000
0000
0000
0010
0000
,
0000
0000
0001
0000
0000
0010
0000
0000
0000
0000
0000
0010
0000
0000
1000
0000
0000
0000
0000
0000
1000
0000
0000
0100
0000
0000
0000
0000
0000
0100
0000
0000
,
1000
0000
0000
0010
0000
0000
0001
0000
0100
0000
0001
0000
0010
0000
1000
0000
0000
0000
0010
0000
0000
0001
0000
0000
0000
0000
0100
0000
0000
0001
0000
0000
,
0000
0000
0000
0000
0100
0000
0000
0000
0000
0000
0000
0000
0000
0000
0000
0000
0000
0000
0000
0000
0100
0000
0000
0001
0000
0000
0000
0000
1000
0000
0000
0010
,
0000
0000
0100
0000
0000
0010
0000
0000
0001
0000
0010
0000
1000
0000
0000
0001
0000
0000
1000
0000
0000
0000
0001
0000
0010
0000
0100
0000
1000
0000
0000
0000
,
0000
0000
0001
0010
0000
1000
0000
0000
0000
0001
0010
0100
1000
0000
0000
0000
,
0000
0000
0000
1000
0010
0001
0100
0001
0010
1000
0100
0001
,
0010
1000
0100
0001
0010
1000
0100
0001
0010
0001
0100
0010
,
0001
0100
1000
0001
0010
1000
0010
0200
0000
0000
0000
0000
,
0302
0000
0000
0023
,
0000
0000
0000
0000
0030
0000
0000
1000
0000
0000
0010
0000
0001
0100
0000
0000
,
0100
0001
0100
0010
0100
1000
0100
0001
0100
0010
0100
1000
,
0100
0001
0100
1000
0100
0010
0100
0001
0100
0010
0100
0001
,
0100
0010
0100
1000
0100
0001
0100
1000
0100
0010
0100
1000
,
0100
0001
0100
0001
0010
0001
0010
1000
0010
1000
0010
0001
,
0100
0001
0100
0001
0010
0001
0010
1000
0010
1000
0010
0001
,
1000
0100
0010
0001
0100
0001
0100
0001
0100
0001
0100
0001
,
1000
0010
0100
0001
0010
0100
2000
0000
0000
3200
0000
0000
,
0320
0000
0000
0000
,
0000
0000
0000
0000
,
0000
0000
0000
0000
,
0000
0000
0000
0000
,
0000
0000
0000
0000
,
0000
0000
0000
0000
,
0000
0000
0000
0000
,
0000
0000
0000
0000
,
0000
0000
0000
0030
,
0000
0000
0100
0000
1000
0000
0100
0000
1000
0100
1000
0100
1000
0100
1000
0001
,
0100
0010
0100
0010
0100
0001
1000
0100
0001
0010
0100
1000
0100
0010
0001
0100
,
0010
0000
0000
1000
0000
0000
0100
0000
0000
0010
0000
0000
0001
0000
0000
0000
1000
0000
0000
0000
0100
0000
0000
0000
0010
0000
0000
0000
0001
0000
0000
0000
1000
0000
0000
0000
0100
0000
0000
0000
0010
0000
0000
0000
0001
0000
0000
0000
,
1000
0000
0000
0000
0010
0000
0000
0000
0000
0100
0000
0000
0000
0000
0000
0010
0000
0000
0000
0000
0000
0001
0000
0000
0010
0000
0000
0001
0000
0000
0010
0000
0000
0001
0000
0000
0010
0000
0000
0000
0000
0000
0000
0000
0000
0100
0000
0000
,
1000
0100
1000
0100
1000
0100
0010
0001
0100
0010
1000
0010
0100
0001
0010
0100
,
1000
0000
0000
0100
0000
0000
0010
0000
0000
0100
0000
0000
1000
0000
0000
0001
0000
0000
0100
0000
0000
0001
0000
0000
1000
0000
0000
0000
0001
0000
0000
0000
0100
0000
0000
0000
0001
0000
0000
0000
1000
0000
0000
0000
0100
0000
0000
0000
,
1000
0000
0000
0000
0100
0000
0000
0000
0000
0010
0000
0000
0000
0000
0000
0001
0000
0000
0010
0000
0000
0001
0000
0000
0010
0000
0000
0001
0000
0000
0010
0000
0000
0001
0000
0000
0010
0000
0000
1000
0000
0000
0100
0000
0000
0010
0000
0000
,
0100
0010
0100
0010
1000
0001
0100
0010
1000
0100
0010
0001
0100
0010
1000
0100
,
0010
0000
0000
0001
0000
0000
0100
0000
0000
0010
0000
0000
1000
0000
0000
0000
0001
0000
0000
0000
0010
0000
0000
0000
0100
0000
0000
0000
0010
0000
0000
0000
0001
0000
0000
0000
1000
0000
0000
0000
0100
0000
0000
0000
1000
0000
0000
0000
,
0100
0010
0001
0010
0100
1000
0010
0100
0001
0010
0100
0010
,
0001
0010
1000
0100
0010
1000
0100
0010
1000
0100
0010
1000
0100
0010
1000
0100
,
0010
1000
0100
0010
1000
0100
0010
1000
0100
0010
1000
0100
0001
1000
0100
0001
,
1000
0100
0001
1000
0100
0001
1000
0100
0001
1000
0100
0001
1000
0100
0001
1000
,
0100
0001
0010
0100
1000
0010
0100
1000
0010
0100
1000
0010
0100
1000
0010
0100
,
1000
0010
0100
1000
0010
0100
1000
0100
0010
0001
0100
0010
0001
0100
0010
0001
,
1000
0010
0001
1000
0010
0001
1000
0010
0001
1000
0010
0001
1000
0010
0001
1000
,
0010
0001
1000
0010
0001
1000
0010
0001
1000
0100
0010
1000
0100
0010
1000
0100
,
0010
1000
0100
0010
1000
0100
0010
1000
0100
0010
0001
0100
1000
0001
0100
1000
,
0001
0100
1000
0001
0100
1000
0001
0100
1000
0001
0100
1000
0001
0100
1000
0001
,
0100
1000
0100
0001
0010
0100
0001
0010
0100
0001
0010
1000
0100
0001
1000
0100
,
0001
1000
0100
0001
1000
0100
0001
1000
0100
0001
1000
0100
0001
1000
0100
0001
,
1000
0100
0001
1000
0100
0001
1000
0100
0001
1000
0100
0001
1000
0100
0001
1000
,
0100
0001
1000
0100
0001
0010
0100
1000
0010
0100
1000
0010
0100
1000
0010
0001
,
0100
0010
0001
1000
0010
0001
1000
0010
0001
1000
0010
0001
0010
0100
0001
0010
,
0100
0001
0010
0100
0001
1000
0100
0010
1000
0100
0010
1000
0100
0010
0001
0100
,
1000
0001
0100
1000
0001
0100
1000
0001
0100
1000
0001
0100
1000
0001
0100
0010
,
0001
0100
0010
0001
0100
0010
0001
1000
0001
0010
1000
0001
0010
1000
0001
0010
,
1000
0001
0010
1000
0001
0010
1000
0001
0010
1000
0001
0010
1000
0001
0010
1000
,
0100
0010
1000
0100
0010
1000
0100
0010
1000
0100
0010
1000
0100
0010
1000
0100
,
0010
1000
0100
0010
1000
0100
0010
1000
0100
0010
1000
0100
0010
0001
0100
1000
,
0001
0100
1000
0001
0100
1000
0001
0100
1000
0001
0100
1000
0001
0100
1000
0001
,
0100
1000
0001
0100
1000
0001
0100
1000
0100
0010
0001
0100
0010
0001
0100
0010
,
0001
0100
0010
0001
0100
0010
0001
0100
0010
0001
0100
0010
0001
0100
0010
0001
,
0100
0010
0001
0010
0100
1000
0010
0100
1000
0010
0100
1000
0010
0100
1000
0010
,
0100
1000
0010
1000
0100
0010
1000
0100
0010
1000
0100
0010
1000
0100
0010
1000
,
0100
0001
0010
0100
0001
0010
0100
0001
0010
0100
0001
1000
0100
0001
1000
0100
,
0001
1000
0100
0001
1000
0100
0020
0000
0000
0000
0000
0000
0000
0000
0032
0000
,
0000
0000
0000
0023
0000
0000
0000
0000
,
0000
0000
0000
0000
,
0000
0000
0000
0000
,
0000
0000
0000
0000
,
0000
0000
0000
0000
,
0000
0000
0000
0000
,
0000
0000
0000
0000
,
0000
0000
0000
0000
,
0000
0000
0000
0000
,
0000
0000
0000
0000
,
0000
0000
0000
0000
,
0000
0000
0000
0000
,
0000
0000
0000
0000
,
0000
0000
0000
0000
,
0000
0000
0030
0000
;
